  0
SECTION
  2
HEADER
  9
$ACADVER
  1
AC1014
  9
$ACADMAINTVER
 70
     9
  9
$DWGCODEPAGE
  3
ANSI_1252
  9
$INSBASE
 10
0.0
 20
0.0
 30
0.0
  9
$EXTMIN
 10
0.3465017877179902
 20
4.886517789059693
 30
0.0
  9
$EXTMAX
 10
11.23068298128169
 20
8.602623115221856
 30
0.0
  9
$LIMMIN
 10
0.0
 20
0.0
  9
$LIMMAX
 10
12.0
 20
9.0
  9
$ORTHOMODE
 70
     0
  9
$REGENMODE
 70
     1
  9
$FILLMODE
 70
     1
  9
$QTEXTMODE
 70
     0
  9
$MIRRTEXT
 70
     1
  9
$DRAGMODE
 70
     2
  9
$LTSCALE
 40
1.0
  9
$OSMODE
 70
     0
  9
$ATTMODE
 70
     1
  9
$TEXTSIZE
 40
0.2
  9
$TRACEWID
 40
0.05
  9
$TEXTSTYLE
  7
STANDARD
  9
$CLAYER
  8
0
  9
$CELTYPE
  6
BYLAYER
  9
$CECOLOR
 62
   256
  9
$CELTSCALE
 40
1.0
  9
$DELOBJ
 70
     1
  9
$DISPSILH
 70
     0
  9
$DIMSCALE
 40
1.0
  9
$DIMASZ
 40
0.18
  9
$DIMEXO
 40
0.0625
  9
$DIMDLI
 40
0.38
  9
$DIMRND
 40
0.0
  9
$DIMDLE
 40
0.0
  9
$DIMEXE
 40
0.18
  9
$DIMTP
 40
0.0
  9
$DIMTM
 40
0.0
  9
$DIMTXT
 40
0.18
  9
$DIMCEN
 40
0.09
  9
$DIMTSZ
 40
0.0
  9
$DIMTOL
 70
     0
  9
$DIMLIM
 70
     0
  9
$DIMTIH
 70
     1
  9
$DIMTOH
 70
     1
  9
$DIMSE1
 70
     0
  9
$DIMSE2
 70
     0
  9
$DIMTAD
 70
     0
  9
$DIMZIN
 70
     0
  9
$DIMBLK
  1

  9
$DIMASO
 70
     1
  9
$DIMSHO
 70
     1
  9
$DIMPOST
  1

  9
$DIMAPOST
  1

  9
$DIMALT
 70
     0
  9
$DIMALTD
 70
     2
  9
$DIMALTF
 40
25.4
  9
$DIMLFAC
 40
1.0
  9
$DIMTOFL
 70
     0
  9
$DIMTVP
 40
0.0
  9
$DIMTIX
 70
     0
  9
$DIMSOXD
 70
     0
  9
$DIMSAH
 70
     0
  9
$DIMBLK1
  1

  9
$DIMBLK2
  1

  9
$DIMSTYLE
  2
STANDARD
  9
$DIMCLRD
 70
     0
  9
$DIMCLRE
 70
     0
  9
$DIMCLRT
 70
     0
  9
$DIMTFAC
 40
1.0
  9
$DIMGAP
 40
0.09
  9
$DIMJUST
 70
     0
  9
$DIMSD1
 70
     0
  9
$DIMSD2
 70
     0
  9
$DIMTOLJ
 70
     1
  9
$DIMTZIN
 70
     0
  9
$DIMALTZ
 70
     0
  9
$DIMALTTZ
 70
     0
  9
$DIMFIT
 70
     3
  9
$DIMUPT
 70
     0
  9
$DIMUNIT
 70
     2
  9
$DIMDEC
 70
     2
  9
$DIMTDEC
 70
     2
  9
$DIMALTU
 70
     2
  9
$DIMALTTD
 70
     2
  9
$DIMTXSTY
  7
STANDARD
  9
$DIMAUNIT
 70
     0
  9
$LUNITS
 70
     2
  9
$LUPREC
 70
     4
  9
$SKETCHINC
 40
0.1
  9
$FILLETRAD
 40
0.5
  9
$AUNITS
 70
     0
  9
$AUPREC
 70
     0
  9
$MENU
  1
.
  9
$ELEVATION
 40
0.0
  9
$PELEVATION
 40
0.0
  9
$THICKNESS
 40
0.0
  9
$LIMCHECK
 70
     0
  9
$BLIPMODE
 70
     0
  9
$CHAMFERA
 40
0.5
  9
$CHAMFERB
 40
0.5
  9
$CHAMFERC
 40
1.0
  9
$CHAMFERD
 40
0.0
  9
$SKPOLY
 70
     0
  9
$TDCREATE
 40
2452178.469589815
  9
$TDUPDATE
 40
2452646.425322916
  9
$TDINDWG
 40
0.0014862269
  9
$TDUSRTIMER
 40
0.0014862269
  9
$USRTIMER
 70
     1
  9
$ANGBASE
 50
0.0
  9
$ANGDIR
 70
     0
  9
$PDMODE
 70
     0
  9
$PDSIZE
 40
0.0
  9
$PLINEWID
 40
0.0
  9
$COORDS
 70
     1
  9
$SPLFRAME
 70
     0
  9
$SPLINETYPE
 70
     6
  9
$SPLINESEGS
 70
     8
  9
$ATTDIA
 70
     1
  9
$ATTREQ
 70
     1
  9
$HANDLING
 70
-16383
  9
$HANDSEED
  5
664
  9
$SURFTAB1
 70
     6
  9
$SURFTAB2
 70
     6
  9
$SURFTYPE
 70
     6
  9
$SURFU
 70
     6
  9
$SURFV
 70
     6
  9
$UCSNAME
  2

  9
$UCSORG
 10
0.0
 20
0.0
 30
0.0
  9
$UCSXDIR
 10
1.0
 20
0.0
 30
0.0
  9
$UCSYDIR
 10
0.0
 20
1.0
 30
0.0
  9
$PUCSNAME
  2

  9
$PUCSORG
 10
0.0
 20
0.0
 30
0.0
  9
$PUCSXDIR
 10
1.0
 20
0.0
 30
0.0
  9
$PUCSYDIR
 10
0.0
 20
1.0
 30
0.0
  9
$USERI1
 70
     0
  9
$USERI2
 70
     0
  9
$USERI3
 70
     0
  9
$USERI4
 70
     0
  9
$USERI5
 70
     0
  9
$USERR1
 40
0.0
  9
$USERR2
 40
0.0
  9
$USERR3
 40
0.0
  9
$USERR4
 40
0.0
  9
$USERR5
 40
0.0
  9
$WORLDVIEW
 70
     1
  9
$SHADEDGE
 70
     3
  9
$SHADEDIF
 70
    70
  9
$TILEMODE
 70
     1
  9
$MAXACTVP
 70
    64
  9
$PINSBASE
 10
0.0
 20
0.0
 30
0.0
  9
$PLIMCHECK
 70
     0
  9
$PEXTMIN
 10
1.000000000000000E+20
 20
1.000000000000000E+20
 30
1.000000000000000E+20
  9
$PEXTMAX
 10
-1.000000000000000E+20
 20
-1.000000000000000E+20
 30
-1.000000000000000E+20
  9
$PLIMMIN
 10
0.0
 20
0.0
  9
$PLIMMAX
 10
12.0
 20
9.0
  9
$UNITMODE
 70
     0
  9
$VISRETAIN
 70
     1
  9
$PLINEGEN
 70
     0
  9
$PSLTSCALE
 70
     1
  9
$TREEDEPTH
 70
  3020
  9
$PICKSTYLE
 70
     1
  9
$CMLSTYLE
  2
STANDARD
  9
$CMLJUST
 70
     0
  9
$CMLSCALE
 40
1.0
  9
$PROXYGRAPHICS
 70
     1
  9
$MEASUREMENT
 70
     0
  0
ENDSEC
  0
SECTION
  2
CLASSES
  0
CLASS
  1
ACDBDICTIONARYWDFLT
  2
AcDbDictionaryWithDefault
  3
AutoCAD 2000
 90
        0
280
     0
281
     0
  0
CLASS
  1
ACDBPLACEHOLDER
  2
AcDbPlaceHolder
  3
AutoCAD 2000
 90
        0
280
     0
281
     0
  0
CLASS
  1
LAYOUT
  2
AcDbLayout
  3
AutoCAD 2000
 90
        0
280
     0
281
     0
  0
CLASS
  1
LONG_TRANSACTION
  2
AcDbLongTransaction
  3
AutoCAD 2000
 90
        0
280
     0
281
     0
  0
CLASS
  1
LWPOLYLINE
  2
AcDbPolyline
  3
AutoCAD 2000
 90
        0
280
     0
281
     1
  0
CLASS
  1
HATCH
  2
AcDbHatch
  3
AutoCAD 2000
 90
        0
280
     0
281
     1
  0
CLASS
  1
XRECORD
  2
AcDbXrecord
  3
AutoCAD 2000
 90
        0
280
     0
281
     0
  0
ENDSEC
  0
SECTION
  2
TABLES
  0
TABLE
  2
VPORT
  5
8
330
0
100
AcDbSymbolTable
 70
     3
  0
VPORT
  5
63D
330
8
100
AcDbSymbolTableRecord
100
AcDbViewportTableRecord
  2
*ACTIVE
 70
     0
 10
0.0
 20
0.0
 11
1.0
 21
1.0
 12
6.062939123047399
 22
5.845588218946328
 13
0.0
 23
0.0
 14
0.5
 24
0.5
 15
0.5
 25
0.5
 16
0.0
 26
0.0
 36
1.0
 17
0.0
 27
0.0
 37
0.0
 40
8.99999999161816
 41
1.462515883100381
 42
50.0
 43
0.0
 44
0.0
 50
0.0
 51
0.0
 71
     0
 72
   100
 73
     1
 74
     3
 75
     0
 76
     0
 77
     0
 78
     0
  0
ENDTAB
  0
TABLE
  2
LTYPE
  5
5
330
0
100
AcDbSymbolTable
 70
     1
  0
LTYPE
  5
14
330
5
100
AcDbSymbolTableRecord
100
AcDbLinetypeTableRecord
  2
BYBLOCK
 70
     0
  3

 72
    65
 73
     0
 40
0.0
  0
LTYPE
  5
15
330
5
100
AcDbSymbolTableRecord
100
AcDbLinetypeTableRecord
  2
BYLAYER
 70
     0
  3

 72
    65
 73
     0
 40
0.0
  0
LTYPE
  5
16
330
5
100
AcDbSymbolTableRecord
100
AcDbLinetypeTableRecord
  2
CONTINUOUS
 70
     0
  3
Solid line
 72
    65
 73
     0
 40
0.0
  0
ENDTAB
  0
TABLE
  2
LAYER
  5
2
330
0
100
AcDbSymbolTable
 70
     4
  0
LAYER
  5
10
330
2
100
AcDbSymbolTableRecord
100
AcDbLayerTableRecord
  2
0
 70
     0
 62
     7
  6
CONTINUOUS
  0
LAYER
  5
34
330
2
100
AcDbSymbolTableRecord
100
AcDbLayerTableRecord
  2
L
 70
     0
 62
     7
  6
CONTINUOUS
  0
LAYER
  5
45
330
2
100
AcDbSymbolTableRecord
100
AcDbLayerTableRecord
  2
DEFPOINTS
 70
     0
 62
     7
  6
CONTINUOUS
  0
LAYER
  5
88
330
2
100
AcDbSymbolTableRecord
100
AcDbLayerTableRecord
  2
TX
 70
     0
 62
   150
  6
CONTINUOUS
  0
ENDTAB
  0
TABLE
  2
STYLE
  5
3
330
0
100
AcDbSymbolTable
 70
     3
  0
STYLE
  5
11
330
3
100
AcDbSymbolTableRecord
100
AcDbTextStyleTableRecord
  2
STANDARD
 70
     0
 40
0.0
 41
1.0
 50
0.0
 71
     0
 42
0.2
  3
txt
  4

  0
STYLE
  5
35
330
3
100
AcDbSymbolTableRecord
100
AcDbTextStyleTableRecord
  2
REG
 70
     0
 40
0.0
 41
1.0
 50
0.0
 71
     0
 42
0.09375
  3
E:\R13\com\fonts\ARCHITXT.SHX
  4

  0
STYLE
  5
36
330
3
100
AcDbSymbolTableRecord
100
AcDbTextStyleTableRecord
  2
DIMTXT
 70
     0
 40
0.0
 41
1.0
 50
0.0
 71
     0
 42
1.125
  3
archt.shx
  4

  0
ENDTAB
  0
TABLE
  2
VIEW
  5
6
330
0
100
AcDbSymbolTable
 70
     0
  0
ENDTAB
  0
TABLE
  2
UCS
  5
7
330
0
100
AcDbSymbolTable
 70
     0
  0
ENDTAB
  0
TABLE
  2
APPID
  5
9
330
0
100
AcDbSymbolTable
 70
     1
  0
APPID
  5
12
330
9
100
AcDbSymbolTableRecord
100
AcDbRegAppTableRecord
  2
ACAD
 70
     0
  0
ENDTAB
  0
TABLE
  2
DIMSTYLE
  5
A
330
0
100
AcDbSymbolTable
 70
     6
  0
DIMSTYLE
105
27
102
{ACAD_REACTORS
330
C1
330
CF
102
}
330
A
100
AcDbSymbolTableRecord
100
AcDbDimStyleTableRecord
  2
STANDARD
 70
     0
  3

  4

  5

  6

  7

 40
1.0
 41
0.18
 42
0.0625
 43
0.38
 44
0.18
 45
0.0
 46
0.0
 47
0.0
 48
0.0
140
0.18
141
0.09
142
0.0
143
25.4
144
1.0
145
0.0
146
1.0
147
0.09
 71
     0
 72
     0
 73
     1
 74
     1
 75
     0
 76
     0
 77
     0
 78
     0
170
     0
171
     2
172
     0
173
     0
174
     0
175
     0
176
     0
177
     0
178
     0
270
     2
271
     2
272
     2
273
     2
274
     2
340
11
275
     0
280
     0
281
     0
282
     0
283
     1
284
     0
285
     0
286
     0
287
     3
288
     0
  0
DIMSTYLE
105
37
330
A
100
AcDbSymbolTableRecord
100
AcDbDimStyleTableRecord
  2
1
 70
     0
  3

  4

  5

  6

  7

 40
1.0
 41
1.125
 42
0.5
 43
0.375
 44
1.19921875
 45
0.0
 46
0.5
 47
0.0
 48
0.0
140
1.125
141
0.125
142
0.0
143
25.4
144
1.0
145
0.0
146
0.8
147
0.5625
 71
     0
 72
     0
 73
     0
 74
     0
 75
     0
 76
     0
 77
     1
 78
     3
170
     0
171
     2
172
     1
173
     0
174
     1
175
     0
176
   133
177
   133
178
   150
270
     2
271
     3
272
     3
273
     2
274
     2
340
36
275
     0
280
     0
281
     0
282
     0
283
     1
284
     0
285
     0
286
     0
287
     4
288
     0
  0
DIMSTYLE
105
38
330
A
100
AcDbSymbolTableRecord
100
AcDbDimStyleTableRecord
  2
1$2
 70
     0
  3

  4

  5
DOTSMALL
  6

  7

 40
1.0
 41
1.5
 42
0.5
 43
0.375
 44
1.19921875
 45
0.0
 46
0.5
 47
0.0
 48
0.0
140
0.75
141
0.125
142
0.0
143
25.4
144
1.0
145
0.0
146
0.8
147
0.5625
 71
     0
 72
     0
 73
     0
 74
     0
 75
     0
 76
     0
 77
     1
 78
     3
170
     0
171
     2
172
     1
173
     0
174
     1
175
     0
176
   133
177
   133
178
   150
270
     2
271
     3
272
     3
273
     2
274
     2
340
36
275
     0
280
     0
281
     0
282
     0
283
     1
284
     0
285
     0
286
     0
287
     4
288
     0
  0
DIMSTYLE
105
39
330
A
100
AcDbSymbolTableRecord
100
AcDbDimStyleTableRecord
  2
1$4
 70
     0
  3

  4

  5

  6

  7
DOTSMALL
 40
1.0
 41
1.5
 42
0.5
 43
0.375
 44
1.19921875
 45
0.0
 46
0.5
 47
0.0
 48
0.0
140
0.75
141
0.125
142
0.0
143
25.4
144
1.0
145
0.0
146
0.8
147
0.5625
 71
     0
 72
     0
 73
     0
 74
     0
 75
     0
 76
     0
 77
     1
 78
     3
170
     0
171
     2
172
     1
173
     1
174
     1
175
     0
176
   133
177
   133
178
   150
270
     2
271
     3
272
     3
273
     2
274
     2
340
36
275
     0
280
     0
281
     0
282
     0
283
     1
284
     0
285
     0
286
     0
287
     4
288
     0
  0
DIMSTYLE
105
3A
330
A
100
AcDbSymbolTableRecord
100
AcDbDimStyleTableRecord
  2
1$3
 70
     0
  3

  4

  5
DOTSMALL
  6

  7

 40
1.0
 41
1.5
 42
0.5
 43
0.375
 44
1.19921875
 45
0.0
 46
0.5
 47
0.0
 48
0.0
140
0.75
141
0.125
142
0.0
143
25.4
144
1.0
145
0.0
146
0.8
147
0.5625
 71
     0
 72
     0
 73
     0
 74
     0
 75
     0
 76
     0
 77
     1
 78
     3
170
     0
171
     2
172
     1
173
     0
174
     1
175
     0
176
   133
177
   133
178
   150
270
     2
271
     3
272
     3
273
     2
274
     2
340
36
275
     0
280
     0
281
     0
282
     0
283
     1
284
     0
285
     0
286
     0
287
     4
288
     0
  0
DIMSTYLE
105
3B
330
A
100
AcDbSymbolTableRecord
100
AcDbDimStyleTableRecord
  2
1$7
 70
     0
  3

  4

  5

  6

  7

 40
1.0
 41
1.0
 42
0.5
 43
0.375
 44
1.19921875
 45
0.0
 46
0.5
 47
0.0
 48
0.0
140
0.75
141
0.125
142
0.0
143
25.4
144
1.0
145
0.0
146
0.8
147
0.5625
 71
     0
 72
     0
 73
     0
 74
     0
 75
     0
 76
     0
 77
     1
 78
     3
170
     0
171
     2
172
     1
173
     0
174
     1
175
     0
176
   133
177
   133
178
   150
270
     2
271
     3
272
     3
273
     2
274
     2
340
36
275
     0
280
     0
281
     0
282
     0
283
     1
284
     0
285
     0
286
     0
287
     4
288
     0
  0
ENDTAB
  0
TABLE
  2
BLOCK_RECORD
  5
1
330
0
100
AcDbSymbolTable
 70
     5
  0
BLOCK_RECORD
  5
1F
102
{ACAD_XDICTIONARY
360
660
102
}
330
1
100
AcDbSymbolTableRecord
100
AcDbBlockTableRecord
  2
*MODEL_SPACE
  0
BLOCK_RECORD
  5
1B
102
{ACAD_XDICTIONARY
360
65E
102
}
330
1
100
AcDbSymbolTableRecord
100
AcDbBlockTableRecord
  2
*PAPER_SPACE
  0
BLOCK_RECORD
  5
2B
330
1
100
AcDbSymbolTableRecord
100
AcDbBlockTableRecord
  2
_DOT
  0
BLOCK_RECORD
  5
30
330
1
100
AcDbSymbolTableRecord
100
AcDbBlockTableRecord
  2
_DOTSMALL
  0
BLOCK_RECORD
  5
C2
330
1
100
AcDbSymbolTableRecord
100
AcDbBlockTableRecord
  2
*D3
  0
BLOCK_RECORD
  5
D0
330
1
100
AcDbSymbolTableRecord
100
AcDbBlockTableRecord
  2
*D4
  0
ENDTAB
  0
ENDSEC
  0
SECTION
  2
BLOCKS
  0
BLOCK
  5
20
330
1F
100
AcDbEntity
  8
0
100
AcDbBlockBegin
  2
*MODEL_SPACE
 70
     0
 10
0.0
 20
0.0
 30
0.0
  3
*MODEL_SPACE
  1

  0
ENDBLK
  5
21
330
1F
100
AcDbEntity
  8
0
100
AcDbBlockEnd
  0
BLOCK
  5
1C
330
1B
100
AcDbEntity
 67
     1
  8
0
100
AcDbBlockBegin
  2
*PAPER_SPACE
 70
     0
 10
0.0
 20
0.0
 30
0.0
  3
*PAPER_SPACE
  1

  0
ENDBLK
  5
1D
330
1B
100
AcDbEntity
 67
     1
  8
0
100
AcDbBlockEnd
  0
BLOCK
  5
2E
330
2B
100
AcDbEntity
  8
0
100
AcDbBlockBegin
  2
_DOT
 70
     0
 10
0.0
 20
0.0
 30
0.0
  3
_DOT
  1

  0
LWPOLYLINE
  5
2C
330
2B
100
AcDbEntity
  8
L
 62
     0
100
AcDbPolyline
 90
        2
 70
     1
 43
0.5
 10
-0.25
 20
0.0
 42
1.0
 10
0.25
 20
0.0
 42
1.0
  0
LINE
  5
2D
330
2B
100
AcDbEntity
  8
L
 62
     0
100
AcDbLine
 10
-0.5
 20
0.0
 30
0.0
 11
-1.0
 21
0.0
 31
0.0
  0
ENDBLK
  5
2F
330
2B
100
AcDbEntity
  8
0
100
AcDbBlockEnd
  0
BLOCK
  5
32
330
30
100
AcDbEntity
  8
0
 48
0.116666
100
AcDbBlockBegin
  2
_DOTSMALL
 70
     0
 10
0.0
 20
0.0
 30
0.0
  3
_DOTSMALL
  1

  0
LWPOLYLINE
  5
31
330
30
100
AcDbEntity
  8
0
  6
BYBLOCK
 62
     0
100
AcDbPolyline
 90
        2
 70
     1
 43
0.5
 10
-0.0625
 20
0.0
 42
1.0
 10
0.0625
 20
0.0
 42
1.0
  0
ENDBLK
  5
33
330
30
100
AcDbEntity
  8
0
 48
0.116666
100
AcDbBlockEnd
  0
BLOCK
  5
CD
330
C2
100
AcDbEntity
  8
0
100
AcDbBlockBegin
  2
*D3
 70
     1
 10
0.0
 20
0.0
 30
0.0
  3
*D3
  1

  0
LINE
  5
C3
330
C2
100
AcDbEntity
  8
0
 62
     0
100
AcDbLine
 10
1.052398710034172
 20
7.523766964139568
 30
0.0
 11
1.052398710034172
 21
8.602623115221856
 31
0.0
  0
LINE
  5
C4
330
C2
100
AcDbEntity
  8
0
 62
     0
100
AcDbLine
 10
11.22239871003424
 20
7.523766964139568
 30
0.0
 11
11.22239871003424
 21
8.602623115221856
 31
0.0
  0
LINE
  5
C5
330
C2
100
AcDbEntity
  8
0
 62
     0
100
AcDbLine
 10
1.232398710034172
 20
8.422623115221856
 30
0.0
 11
5.762398710034208
 21
8.422623115221856
 31
0.0
  0
LINE
  5
C6
330
C2
100
AcDbEntity
  8
0
 62
     0
100
AcDbLine
 10
11.04239871003424
 20
8.422623115221856
 30
0.0
 11
6.512398710034208
 21
8.422623115221856
 31
0.0
  0
SOLID
  5
C7
330
C2
100
AcDbEntity
  8
0
 62
     0
100
AcDbTrace
 10
1.232398710034172
 20
8.452623115221856
 30
0.0
 11
1.232398710034172
 21
8.392623115221857
 31
0.0
 12
1.052398710034172
 22
8.422623115221856
 32
0.0
 13
1.052398710034172
 23
8.422623115221856
 33
0.0
  0
SOLID
  5
C8
330
C2
100
AcDbEntity
  8
0
 62
     0
100
AcDbTrace
 10
11.04239871003424
 20
8.452623115221856
 30
0.0
 11
11.04239871003424
 21
8.392623115221857
 31
0.0
 12
11.22239871003424
 22
8.422623115221856
 32
0.0
 13
11.22239871003424
 23
8.422623115221856
 33
0.0
  0
MTEXT
  5
C9
330
C2
100
AcDbEntity
  8
0
 62
     0
100
AcDbMText
 10
6.137398710034208
 20
8.422623115221856
 30
0.0
 40
0.18
 41
0.0
 71
     5
 72
     1
  1
\A1;10.17
1001
ACAD
1000
MTEXTBEGIN
1070
    73
1070
     1
1070
    44
1040
1.0
1070
    74
1070
     0
1000
MTEXTEND
  0
POINT
  5
CA
330
C2
100
AcDbEntity
  8
DEFPOINTS
 62
     0
100
AcDbPoint
 10
1.052398710034172
 20
7.461266964139568
 30
0.0
  0
POINT
  5
CB
330
C2
100
AcDbEntity
  8
DEFPOINTS
 62
     0
100
AcDbPoint
 10
11.22239871003424
 20
7.461266964139568
 30
0.0
  0
POINT
  5
CC
330
C2
100
AcDbEntity
  8
DEFPOINTS
 62
     0
100
AcDbPoint
 10
11.22239871003424
 20
8.422623115221856
 30
0.0
  0
ENDBLK
  5
CE
330
C2
100
AcDbEntity
  8
0
100
AcDbBlockEnd
  0
BLOCK
  5
DB
330
D0
100
AcDbEntity
  8
0
100
AcDbBlockBegin
  2
*D4
 70
     1
 10
0.0
 20
0.0
 30
0.0
  3
*D4
  1

  0
LINE
  5
D1
330
D0
100
AcDbEntity
  8
0
 62
     0
100
AcDbLine
 10
1.529898710034135
 20
7.881266964139527
 30
0.0
 11
0.3765017877179917
 21
7.881266964139527
 31
0.0
  0
LINE
  5
D2
330
D0
100
AcDbEntity
  8
0
 62
     0
100
AcDbLine
 10
1.415182981281564
 20
5.776266964139509
 30
0.0
 11
0.376501787717991
 21
5.776266964139509
 31
0.0
  0
LINE
  5
D3
330
D0
100
AcDbEntity
  8
0
 62
     0
100
AcDbLine
 10
0.5565017877179914
 20
7.701266964139527
 30
0.0
 11
0.5565017877179913
 21
7.008766964139518
 31
0.0
  0
LINE
  5
D4
330
D0
100
AcDbEntity
  8
0
 62
     0
100
AcDbLine
 10
0.5565017877179911
 20
5.956266964139508
 30
0.0
 11
0.5565017877179912
 21
6.648766964139518
 31
0.0
  0
SOLID
  5
D5
330
D0
100
AcDbEntity
  8
0
 62
     0
100
AcDbTrace
 10
0.5265017877179914
 20
7.701266964139527
 30
0.0
 11
0.5865017877179915
 21
7.701266964139527
 31
0.0
 12
0.5565017877179916
 22
7.881266964139527
 32
0.0
 13
0.5565017877179916
 23
7.881266964139527
 33
0.0
  0
SOLID
  5
D6
330
D0
100
AcDbEntity
  8
0
 62
     0
100
AcDbTrace
 10
0.5265017877179911
 20
5.956266964139508
 30
0.0
 11
0.5865017877179911
 21
5.956266964139508
 31
0.0
 12
0.5565017877179911
 22
5.776266964139509
 32
0.0
 13
0.5565017877179911
 23
5.776266964139509
 33
0.0
  0
MTEXT
  5
D7
330
D0
100
AcDbEntity
  8
0
 62
     0
100
AcDbMText
 10
0.5565017877179903
 20
6.828766964139518
 30
0.0
 40
0.18
 41
0.0
 71
     5
 72
     1
  1
\A1;2.11
1001
ACAD
1000
MTEXTBEGIN
1070
    73
1070
     1
1070
    44
1040
1.0
1070
    74
1070
     0
1000
MTEXTEND
  0
POINT
  5
D8
330
D0
100
AcDbEntity
  8
DEFPOINTS
 62
     0
100
AcDbPoint
 10
1.592398710034135
 20
7.881266964139527
 30
0.0
  0
POINT
  5
D9
330
D0
100
AcDbEntity
  8
DEFPOINTS
 62
     0
100
AcDbPoint
 10
1.477682981281564
 20
5.776266964139509
 30
0.0
  0
POINT
  5
DA
330
D0
100
AcDbEntity
  8
DEFPOINTS
 62
     0
100
AcDbPoint
 10
0.5565017877179911
 20
5.776266964139509
 30
0.0
  0
ENDBLK
  5
DC
330
D0
100
AcDbEntity
  8
0
100
AcDbBlockEnd
  0
ENDSEC
  0
SECTION
  2
ENTITIES
  0
LWPOLYLINE
  5
BD
330
1F
100
AcDbEntity
  8
L
 62
     5
 48
0.233332
100
AcDbPolyline
 90
        2
 70
     0
 43
0.028125
 10
4.289358204374101
 20
5.077236390361425
 10
7.792061868167214
 20
5.077236390361425
  0
TEXT
  5
BE
330
1F
100
AcDbEntity
  8
L
 62
     3
 48
0.233332
100
AcDbText
 10
4.383094047055086
 20
5.170972233042467
 30
0.0
 40
0.140625
  1
SERIES 12 HINGE BODY #1612
  7
REG
100
AcDbText
  0
TEXT
  5
BF
330
1F
100
AcDbEntity
  8
TX
 48
0.233332
100
AcDbText
 10
4.383094047055086
 20
4.889750547680383
 30
0.0
 40
0.09375
  1
SCALE : FULL SIZE
  7
REG
 11
4.383094047055086
 21
4.983500547680383
 31
0.0
100
AcDbText
 73
     3
  0
DIMENSION
  5
C1
330
1F
100
AcDbEntity
  8
0
100
AcDbDimension
  2
*D3
 10
11.22239871003424
 20
8.422623115221856
 30
0.0
 11
6.137398710034208
 21
8.422623115221856
 31
0.0
 70
    32
  3
STANDARD
100
AcDbAlignedDimension
 13
1.052398710034172
 23
7.461266964139568
 33
0.0
 14
11.22239871003424
 24
7.461266964139568
 34
0.0
100
AcDbRotatedDimension
  0
DIMENSION
  5
CF
330
1F
100
AcDbEntity
  8
0
100
AcDbDimension
  2
*D4
 10
0.5565017877179911
 20
5.776266964139509
 30
0.0
 11
0.5565017877179903
 21
6.828766964139518
 31
0.0
 70
    32
  3
STANDARD
100
AcDbAlignedDimension
 13
1.592398710034135
 23
7.881266964139527
 33
0.0
 14
1.477682981281564
 24
5.776266964139509
 34
0.0
 50
90.0
100
AcDbRotatedDimension
  0
LWPOLYLINE
  5
4E6
330
1F
100
AcDbEntity
  8
L
 62
     5
100
AcDbPolyline
 90
      342
 70
     1
 43
0.0
 10
1.150502193404495
 20
7.146799382143981
 10
1.163295226663973
 20
7.128734546135151
 42
-0.3182284865408733
 10
1.163295226663908
 20
7.121799382144004
 10
1.150502193404431
 20
7.103734546135174
 42
0.3182284865408733
 10
1.150502193404495
 20
7.096799382144027
 10
1.163295226663973
 20
7.078734546135083
 42
-0.3182284865408733
 10
1.163295226663908
 20
7.071799382143936
 10
1.150502193404393
 20
7.053734546135133
 42
0.155277808287578
 10
1.149398710034152
 20
7.05026696413951
 10
1.149398710033924
 20
6.961266964139568
 42
0.4142135623797547
 10
1.159398710034142
 20
6.951266964139577
 10
1.316398710034295
 20
6.951266964139577
 42
0.4142135623730951
 10
1.326398710034286
 20
6.961266964139568
 10
1.326398710034403
 20
7.025266964139532
 42
0.1552778082866837
 10
1.325295226663943
 20
7.028734546135083
 10
1.312502193404465
 20
7.046799382143913
 42
-0.3182284865408731
 10
1.31250219340453
 20
7.053734546135061
 10
1.325295226664007
 20
7.071799382143891
 42
0.3182284865408733
 10
1.325295226663943
 20
7.078734546135038
 10
1.312502193404465
 20
7.096799382143982
 42
-0.3182284865408731
 10
1.31250219340453
 20
7.103734546135129
 10
1.325295226664007
 20
7.121799382143959
 42
0.3182284865408733
 10
1.325295226663943
 20
7.128734546135106
 10
1.312502193404465
 20
7.146799382143936
 42
-0.3182284865408671
 10
1.31250219340453
 20
7.153734546135083
 10
1.325295226664007
 20
7.171799382143913
 42
0.3182284865408733
 10
1.325295226663943
 20
7.178734546135061
 10
1.312502193404465
 20
7.196799382143891
 42
-0.3182284865408731
 10
1.31250219340453
 20
7.203734546135038
 10
1.325295226664007
 20
7.221799382143982
 42
0.3182284865408733
 10
1.325295226663943
 20
7.228734546135129
 10
1.312502193404465
 20
7.246799382143959
 42
-0.3182284865408731
 10
1.31250219340453
 20
7.253734546135106
 10
1.325295226664007
 20
7.271799382143936
 42
0.3182284865408733
 10
1.325295226663943
 20
7.278734546135083
 10
1.312502193404465
 20
7.296799382143913
 42
-0.3182284865408731
 10
1.31250219340453
 20
7.303734546135061
 10
1.325295226664007
 20
7.321799382143891
 42
0.3182284865408733
 10
1.325295226663943
 20
7.328734546135038
 10
1.312502193404465
 20
7.346799382143982
 42
-0.3182284865408731
 10
1.31250219340453
 20
7.353734546135129
 10
1.325295226664007
 20
7.371799382143959
 42
0.3182284865408733
 10
1.325295226663943
 20
7.378734546135106
 10
1.312502193404588
 20
7.396799382144023
 42
-0.3654785947654553
 10
1.313156069347119
 20
7.404509604826685
 10
1.326398710034286
 20
7.4232093242356
 10
1.326398710034187
 20
7.444053760703937
 42
-0.1989123673810506
 10
1.330792108316504
 20
7.454660362421705
 10
1.354469777846237
 20
7.478338031951295
 42
-0.1989123673779345
 10
1.361540845657859
 20
7.48126696413955
 10
1.503398710034193
 20
7.48126696413955
 42
-0.4142135623730951
 10
1.513398710034184
 20
7.471266964139559
 10
1.513398710034184
 20
7.421266964139491
 42
-0.4142135623730951
 10
1.493398710034202
 20
7.401266964139509
 10
1.462398710034253
 20
7.401266964139509
 42
0.4142135623730951
 10
1.42239871003429
 20
7.361266964139545
 10
1.422398710034349
 20
7.122033825566759
 42
0.6745085168412031
 10
1.456785506040919
 20
7.108140658157608
 10
1.668188807039424
 20
7.32705518477672
 42
0.194380309139259
 10
1.67239871003429
 20
7.337475060333659
 10
1.67239871003429
 20
7.761266964139522
 42
0.4142135623730951
 10
1.632398710034326
 20
7.801266964139486
 10
1.562398710034162
 20
7.801266964139486
 42
-0.4142135623730951
 10
1.552398710034172
 20
7.811266964139477
 10
1.552398710034172
 20
7.841266964139563
 42
-0.4142135623730951
 10
1.592398710034135
 20
7.881266964139527
 10
10.68239871003428
 20
7.881266964139527
 42
-0.4142135623730951
 10
10.72239871003424
 20
7.841266964139563
 10
10.72239871003418
 20
7.816266964139472
 42
-0.4142135623730951
 10
10.70739871003414
 20
7.801266964139486
 10
10.64239871003431
 20
7.801266964139486
 42
0.4142135623722627
 10
10.60239871003412
 20
7.761266964139522
 10
10.60239871003401
 20
7.337475060333659
 42
0.1943803091392616
 10
10.60660861302907
 20
7.327055184776796
 10
10.81801191402747
 20
7.108140658157585
 42
0.6745085168412001
 10
10.85239871003412
 20
7.122033825566759
 10
10.85239871003412
 20
7.361266964139545
 42
0.4142135623730951
 10
10.81239871003416
 20
7.401266964139509
 10
10.78139871003421
 20
7.401266964139509
 42
-0.4142135623730951
 10
10.76139871003423
 20
7.421266964139491
 10
10.761398710034
 20
7.471266964139559
 42
-0.4142135623797547
 10
10.77139871003422
 20
7.48126696413955
 10
10.91325657441055
 20
7.48126696413949
 42
-0.1989123673779327
 10
10.92032764222225
 20
7.478338031951366
 10
10.94400531175198
 20
7.454660362421772
 42
-0.1989123673810437
 10
10.94839871003413
 20
7.444053760703937
 10
10.94839871003413
 20
7.4232093242356
 10
10.96164135072128
 20
7.404509604826672
 42
-0.3654785947653608
 10
10.96229522666388
 20
7.396799382143981
 10
10.94950219340463
 20
7.378734546135151
 42
0.3182284865408731
 10
10.9495021934047
 20
7.371799382144004
 10
10.96229522666395
 20
7.353734546135174
 42
-0.3182284865408731
 10
10.96229522666388
 20
7.346799382144027
 10
10.94950219340463
 20
7.328734546135083
 42
0.3182284865408731
 10
10.9495021934047
 20
7.321799382143936
 10
10.96229522666395
 20
7.303734546135106
 42
-0.3182284865408731
 10
10.96229522666388
 20
7.296799382143959
 10
10.94950219340463
 20
7.278734546135129
 42
0.3182284865408731
 10
10.9495021934047
 20
7.271799382143981
 10
10.96229522666395
 20
7.253734546135151
 42
-0.3182284865408731
 10
10.96229522666388
 20
7.246799382144004
 10
10.94950219340463
 20
7.228734546135174
 42
0.3182284865408731
 10
10.9495021934047
 20
7.221799382144027
 10
10.96229522666395
 20
7.203734546135083
 42
-0.3182284865408731
 10
10.96229522666388
 20
7.196799382143936
 10
10.94950219340463
 20
7.178734546135106
 42
0.3182284865408731
 10
10.9495021934047
 20
7.171799382143959
 10
10.96229522666395
 20
7.153734546135129
 42
-0.3182284865408731
 10
10.96229522666388
 20
7.146799382143981
 10
10.94950219340463
 20
7.128734546135151
 42
0.3182284865408731
 10
10.9495021934047
 20
7.121799382144004
 10
10.96229522666395
 20
7.103734546135174
 42
-0.3182284865408731
 10
10.96229522666388
 20
7.096799382144027
 10
10.94950219340463
 20
7.078734546135083
 42
0.3182284865408731
 10
10.9495021934047
 20
7.071799382143936
 10
10.96229522666395
 20
7.053734546135106
 42
-0.3182284865408731
 10
10.96229522666388
 20
7.046799382143959
 10
10.94950219340472
 20
7.028734546135069
 42
0.1552778082839887
 10
10.94839871003413
 20
7.025266964139532
 10
10.9483987100339
 20
6.961266964139568
 42
0.4142135623797547
 10
10.95839871003412
 20
6.951266964139577
 10
11.11539871003427
 20
6.951266964139577
 42
0.4142135623797547
 10
11.12539871003426
 20
6.961266964139568
 10
11.12539871003437
 20
7.05026696413951
 42
0.1552778082875354
 10
11.12429522666392
 20
7.053734546135061
 10
11.11150219340444
 20
7.071799382143891
 42
-0.3182284865408731
 10
11.1115021934045
 20
7.078734546135038
 10
11.12429522666398
 20
7.096799382143981
 42
0.3182284865409065
 10
11.12429522666392
 20
7.103734546135129
 10
11.11150219340444
 20
7.121799382143959
 42
-0.3182284865408731
 10
11.1115021934045
 20
7.128734546135106
 10
11.12429522666398
 20
7.146799382143935
 42
0.3182284865409065
 10
11.12429522666392
 20
7.153734546135083
 10
11.11150219340444
 20
7.171799382143913
 42
-0.3182284865408731
 10
11.1115021934045
 20
7.178734546135061
 10
11.12429522666398
 20
7.19679938214389
 42
0.3182284865409065
 10
11.12429522666392
 20
7.203734546135038
 10
11.11150219340444
 20
7.221799382143982
 42
-0.3182284865408731
 10
11.1115021934045
 20
7.228734546135129
 10
11.12429522666398
 20
7.246799382143958
 42
0.3182284865409065
 10
11.12429522666392
 20
7.253734546135106
 10
11.11150219340444
 20
7.271799382143935
 42
-0.3182284865409064
 10
11.1115021934045
 20
7.278734546135083
 10
11.12429522666398
 20
7.296799382143913
 42
0.3182284865408731
 10
11.12429522666392
 20
7.303734546135061
 10
11.11150219340444
 20
7.321799382143891
 42
-0.3182284865408731
 10
11.1115021934045
 20
7.328734546135038
 10
11.12429522666398
 20
7.346799382143982
 42
0.3182284865408731
 10
11.12429522666392
 20
7.353734546135129
 10
11.11150219340444
 20
7.371799382143958
 42
-0.3182284865409064
 10
11.1115021934045
 20
7.378734546135106
 10
11.12429522666398
 20
7.396799382143936
 42
0.3182284865408731
 10
11.12429522666392
 20
7.403734546135083
 10
11.11150219340451
 20
7.421799382143962
 42
-0.3654785947648438
 10
11.11215606934709
 20
7.429509604826662
 10
11.16098449647198
 20
7.478338031951295
 42
-0.1989123673779278
 10
11.1680555642836
 20
7.48126696413955
 10
11.20239871003426
 20
7.48126696413955
 42
-0.4142135623730951
 10
11.22239871003424
 20
7.461266964139568
 10
11.22239871003424
 20
6.901266964139509
 42
-0.4142135623730951
 10
11.18239871003428
 20
6.861266964139545
 10
11.05739871003428
 20
6.861266964139545
 42
0.4142135623730951
 10
11.01739871003431
 20
6.821266964139582
 10
11.01739871003415
 20
5.996551235386974
 42
-0.1989123673777522
 10
11.01154084565795
 20
5.982409099763245
 10
10.81125657441036
 20
5.782124828515864
 42
-0.1989123673787917
 10
10.79711443878685
 20
5.776266964139509
 10
10.55739871003428
 20
5.776266964139509
 42
-0.4142135623730951
 10
10.5373987100343
 20
5.796266964139491
 10
10.53739871003434
 20
5.867982692892056
 42
-0.1989123673794732
 10
10.54325657441044
 20
5.882124828515784
 10
10.5815408456579
 20
5.920409099763211
 42
-0.1989123673796612
 10
10.59568298128173
 20
5.926266964139486
 10
10.6183987100342
 20
5.926266964139486
 42
-0.4142135623730951
 10
10.63839871003418
 20
5.906266964139504
 10
10.63839871003418
 20
5.886266964139522
 42
0.4142135623730692
 10
10.64839871003417
 20
5.876266964139531
 10
10.76139871003423
 20
5.876266964139531
 42
0.4142135623730951
 10
10.77139871003422
 20
5.886266964139522
 10
10.77139871003422
 20
5.906266964139504
 42
-0.4142135623730951
 10
10.7913987100342
 20
5.926266964139486
 10
10.80569308254942
 20
5.926266964139454
 42
0.1989123673796612
 10
10.81983521817327
 20
5.932124828515739
 10
10.91154084565805
 20
6.023830456000498
 42
0.1989123673794922
 10
10.91739871003418
 20
6.037972591624239
 10
10.91739871003418
 20
6.413266964139566
 42
-0.9999999999999998
 10
10.91739871003418
 20
6.433266964139548
 10
10.91739871003423
 20
6.698266964139534
 42
0.4142135623753149
 10
10.9023987100343
 20
6.713266964139521
 10
10.80739871003428
 20
6.713266964139464
 42
-0.4142135623775346
 10
10.79239871003418
 20
6.728266964139507
 10
10.79239871003401
 20
6.766266964139518
 42
-0.4142135623775348
 10
10.80739871003428
 20
6.781266964139504
 10
10.9023987100343
 20
6.781266964139447
 42
0.4142135623753151
 10
10.91739871003418
 20
6.796266964139491
 10
10.9173987100341
 20
6.853186439622859
 42
0.1943803091369424
 10
10.91178550604107
 20
6.86707960703201
 10
10.82672713223612
 20
6.955160131548733
 42
0.2034522994238265
 10
10.81234033622925
 20
6.961266964139568
 10
10.7913987100342
 20
6.961266964139568
 42
-0.4142135623730951
 10
10.77139871003422
 20
6.98126696413955
 10
10.77139871003422
 20
7.001266964139531
 42
0.4142135623730951
 10
10.76139871003423
 20
7.011266964139522
 10
10.64839871003417
 20
7.011266964139521
 42
0.4142135623797546
 10
10.63839871003418
 20
7.001266964139531
 10
10.63839871003418
 20
6.98126696413955
 42
-0.4142135623730951
 10
10.6183987100342
 20
6.961266964139568
 10
10.61778301512029
 20
6.961266964139539
 42
0.2632780284374083
 10
10.60063966910619
 20
6.951567725637701
 10
10.56422660048451
 20
6.890966202641298
 42
-0.2632780284374069
 10
10.54708325447043
 20
6.881266964139527
 10
10.09239871003413
 20
6.881266964139527
 10
10.07739871003426
 20
6.896266964139513
 10
10.06239871003416
 20
6.881266964139527
 10
9.897398710034199
 20
6.881266964139527
 42
-0.4142135623730951
 10
9.877398710034217
 20
6.901266964139509
 10
9.877398710034217
 20
6.961266964139568
 42
-0.4142135623730951
 10
9.897398710034199
 20
6.98126696413955
 10
10.50182143221539
 20
6.98126696413955
 10
10.57993331268906
 20
7.111266964139545
 10
10.62885946901591
 20
7.111266964139529
 42
0.6618855611940699
 10
10.64324626502278
 20
7.145160131548678
 10
10.5515058314161
 20
7.240160131548701
 42
0.20345229942382
 10
10.53711903540923
 20
7.246266964139536
 10
10.3973987100342
 20
7.246266964139536
 42
-0.4142135623730951
 10
10.37739871003421
 20
7.266266964139518
 10
10.37739871003421
 20
7.294266964139538
 42
-0.4142135623730951
 10
10.3973987100342
 20
7.31426696413952
 10
10.49239871003422
 20
7.31426696413952
 42
0.4142135623797547
 10
10.50239871003421
 20
7.324266964139511
 10
10.50239871003444
 20
7.413266964139566
 42
0.4142135623797547
 10
10.49239871003422
 20
7.423266964139557
 10
10.3973987100342
 20
7.423266964139557
 42
-0.4142135623730951
 10
10.37739871003421
 20
7.443266964139539
 10
10.37739871003421
 20
7.471266964139559
 42
-0.4142135623730951
 10
10.3973987100342
 20
7.491266964139541
 10
10.49239871003422
 20
7.491266964139541
 42
0.4142135623797547
 10
10.50239871003421
 20
7.501266964139531
 10
10.50239871003421
 20
7.746266964139536
 42
0.4142135623730951
 10
10.49239871003422
 20
7.756266964139527
 10
1.787398710034299
 20
7.75626696413947
 42
0.4142135623753149
 10
1.772398710034199
 20
7.741266964139541
 10
1.772398710034199
 20
7.501266964139531
 42
0.4142135623730951
 10
1.78239871003419
 20
7.491266964139541
 10
1.877398710034217
 20
7.491266964139541
 42
-0.4142135623730951
 10
1.897398710034199
 20
7.471266964139559
 10
1.897398710034199
 20
7.443266964139539
 42
-0.4142135623730951
 10
1.877398710034217
 20
7.423266964139557
 10
1.78239871003419
 20
7.423266964139557
 42
0.4142135623797546
 10
1.772398710034199
 20
7.413266964139566
 10
1.772398710033971
 20
7.324266964139511
 42
0.4142135623797547
 10
1.78239871003419
 20
7.31426696413952
 10
1.877398710034217
 20
7.31426696413952
 42
-0.4142135623730951
 10
1.897398710034199
 20
7.294266964139538
 10
1.897398710034199
 20
7.266266964139518
 42
-0.4142135623730951
 10
1.877398710034217
 20
7.246266964139536
 10
1.737678384659179
 20
7.246266964139565
 42
0.2034522994238258
 10
1.723291588652305
 20
7.240160131548705
 10
1.63155115504567
 20
7.14516013154864
 42
0.6618855611940452
 10
1.645937951052506
 20
7.111266964139545
 10
1.686377515706485
 20
7.111266964139601
 42
-0.2632780284395454
 10
1.699235025217181
 20
7.103992535263174
 10
1.768605070015208
 20
6.988541393015934
 42
0.2632780284375726
 10
1.781462579525882
 20
6.98126696413955
 10
2.377398710034217
 20
6.98126696413955
 42
-0.4142135623730951
 10
2.397398710034199
 20
6.961266964139568
 10
2.397398710034199
 20
6.901266964139509
 42
-0.4142135623730951
 10
2.377398710034217
 20
6.881266964139527
 10
2.212398710034253
 20
6.881266964139527
 10
2.197398710034153
 20
6.896266964139513
 10
2.182398710034281
 20
6.881266964139527
 10
1.727714165597976
 20
6.881266964139473
 42
-0.2632780284374048
 10
1.710570819583868
 20
6.89096620264128
 10
1.674157750962151
 20
6.951567725637656
 42
0.2632780284369795
 10
1.657014404948345
 20
6.961266964139568
 10
1.656398710034213
 20
6.961266964139568
 42
-0.4142135623730951
 10
1.636398710034232
 20
6.98126696413955
 10
1.636398710034459
 20
7.001266964139531
 42
0.4142135623797547
 10
1.626398710034241
 20
7.011266964139522
 10
1.513398710034184
 20
7.011266964139522
 42
0.4142135623730951
 10
1.503398710034193
 20
7.001266964139531
 10
1.503398710034193
 20
6.98126696413955
 42
-0.4142135623730951
 10
1.483398710034212
 20
6.961266964139568
 10
1.462457083839158
 20
6.961266964139598
 42
0.2034522994238214
 10
1.448070287832283
 20
6.955160131548737
 10
1.363011914027393
 20
6.867079607031961
 42
0.194380309136947
 10
1.357398710034235
 20
6.853186439622859
 10
1.357398710034235
 20
6.433266964139548
 42
-0.9999999999999998
 10
1.357398710034235
 20
6.413266964139566
 10
1.357398710034285
 20
6.037972591624239
 42
0.1989123673794777
 10
1.363256574410375
 20
6.02383045600051
 10
1.454962201895167
 20
5.93212482851576
 42
0.198912367379653
 10
1.469104337518988
 20
5.926266964139486
 10
1.483398710034212
 20
5.926266964139486
 42
-0.4142135623730951
 10
1.503398710034193
 20
5.906266964139504
 10
1.503398710034193
 20
5.886266964139522
 42
0.4142135623730951
 10
1.513398710034184
 20
5.876266964139531
 10
1.626398710034241
 20
5.876266964139531
 42
0.4142135623797547
 10
1.636398710034232
 20
5.886266964139522
 10
1.636398710034232
 20
5.906266964139504
 42
-0.4142135623730951
 10
1.656398710034213
 20
5.926266964139486
 10
1.679114438786687
 20
5.926266964139517
 42
-0.1989123673796538
 10
1.693256574410529
 20
5.920409099763233
 10
1.731540845657989
 20
5.882124828515796
 42
-0.1989123673794786
 10
1.737398710034117
 20
5.867982692892056
 10
1.737398710034117
 20
5.796266964139491
 42
-0.4142135623730951
 10
1.717398710034135
 20
5.776266964139509
 10
1.477682981281564
 20
5.776266964139525
 42
-0.1989123673787887
 10
1.463540845657949
 20
5.782124828515762
 10
1.263256574410511
 20
5.98240909976329
 42
-0.1989123673790461
 10
1.257398710034326
 20
5.996551235386974
 10
1.257398710034212
 20
6.821266964139582
 42
0.4142135623722627
 10
1.217398710034135
 20
6.861266964139545
 10
1.092398710034135
 20
6.861266964139545
 42
-0.4142135623730951
 10
1.052398710034172
 20
6.901266964139509
 10
1.052398710034172
 20
7.461266964139568
 42
-0.4142135623730951
 10
1.072398710034153
 20
7.48126696413955
 10
1.106741855784807
 20
7.48126696413949
 42
-0.198912367377936
 10
1.113812923596501
 20
7.478338031951366
 10
1.162641350721249
 20
7.429509604826593
 42
-0.3654785947648786
 10
1.163295226663908
 20
7.421799382143959
 10
1.150502193404431
 20
7.403734546135129
 42
0.3182284865408673
 10
1.150502193404495
 20
7.396799382143981
 10
1.163295226663973
 20
7.378734546135151
 42
-0.3182284865408733
 10
1.163295226663908
 20
7.371799382144004
 10
1.150502193404431
 20
7.353734546135174
 42
0.3182284865408733
 10
1.150502193404495
 20
7.346799382144027
 10
1.163295226663972
 20
7.328734546135083
 42
-0.3182284865408671
 10
1.163295226663908
 20
7.321799382143936
 10
1.150502193404431
 20
7.303734546135106
 42
0.3182284865408733
 10
1.150502193404495
 20
7.296799382143959
 10
1.163295226663973
 20
7.278734546135129
 42
-0.3182284865408733
 10
1.163295226663908
 20
7.271799382143981
 10
1.150502193404431
 20
7.253734546135151
 42
0.3182284865408733
 10
1.150502193404495
 20
7.246799382144004
 10
1.163295226663973
 20
7.228734546135174
 42
-0.3182284865408733
 10
1.163295226663908
 20
7.221799382144027
 10
1.150502193404431
 20
7.203734546135083
 42
0.3182284865408733
 10
1.150502193404495
 20
7.196799382143936
 10
1.163295226663972
 20
7.178734546135106
 42
-0.3182284865408671
 10
1.163295226663908
 20
7.171799382143959
 10
1.150502193404431
 20
7.153734546135129
 42
0.3182284865408733
  0
ENDSEC
  0
SECTION
  2
OBJECTS
  0
DICTIONARY
  5
C
330
0
100
AcDbDictionary
  3
ACAD_GROUP
350
D
  3
ACAD_LAYOUT
350
1A
  3
ACAD_MLINESTYLE
350
17
  3
ACAD_PLOTSETTINGS
350
19
  3
ACAD_PLOTSTYLENAME
350
E
  3
ACDBHEADERROUNDTRIPXREC
350
63E
  0
DICTIONARY
  5
660
330
1F
100
AcDbDictionary
280
     1
  3
ACAD_LAYOUTSELFREF
360
661
  0
DICTIONARY
  5
65E
330
1B
100
AcDbDictionary
280
     1
  3
ACAD_LAYOUTSELFREF
360
65F
  0
DICTIONARY
  5
D
102
{ACAD_REACTORS
330
C
102
}
330
C
100
AcDbDictionary
  0
DICTIONARY
  5
1A
102
{ACAD_REACTORS
330
C
102
}
330
C
100
AcDbDictionary
  0
DICTIONARY
  5
17
102
{ACAD_REACTORS
330
C
102
}
330
C
100
AcDbDictionary
  3
STANDARD
350
18
  0
DICTIONARY
  5
19
102
{ACAD_REACTORS
330
C
102
}
330
C
100
AcDbDictionary
  0
ACDBDICTIONARYWDFLT
  5
E
102
{ACAD_REACTORS
330
C
102
}
330
C
100
AcDbDictionary
281
     1
  3
Normal
350
F
100
AcDbDictionaryWithDefault
340
F
  0
DICTIONARY
  5
63E
102
{ACAD_REACTORS
330
C
102
}
330
C
100
AcDbDictionary
  3
CEPSNTYPE
350
648
  3
FINGERPRINTGUID
350
649
  3
HYPERLINKBASE
350
641
  3
INSUNITS
350
647
  3
LAYOUTDICT
350
643
  3
LWETCUNION
350
646
  3
PLOTSETDICT
350
644
  3
PLOTSTYLNAMDICT
350
645
  3
PSVPSCALE
350
64B
  3
PUCSBASE
350
64E
  3
PUCSORGBACK
350
654
  3
PUCSORGBOTTOM
350
650
  3
PUCSORGFRONT
350
653
  3
PUCSORGLEFT
350
651
  3
PUCSORGRIGHT
350
652
  3
PUCSORGTOP
350
64F
  3
PUCSORTHOREF
350
64C
  3
PUCSORTHOVIEW
350
64D
  3
STYLESHEET
350
642
  3
TSTACKALIGN
350
63F
  3
TSTACKSIZE
350
640
  3
UCSBASE
350
657
  3
UCSORGBACK
350
65D
  3
UCSORGBOTTOM
350
659
  3
UCSORGFRONT
350
65C
  3
UCSORGLEFT
350
65A
  3
UCSORGRIGHT
350
65B
  3
UCSORGTOP
350
658
  3
UCSORTHOREF
350
655
  3
UCSORTHOVIEW
350
656
  3
VERSIONGUID
350
64A
  0
XRECORD
  5
661
102
{ACAD_REACTORS
330
660
102
}
330
660
100
AcDbXrecord
340
1F
  0
XRECORD
  5
65F
102
{ACAD_REACTORS
330
65E
102
}
330
65E
100
AcDbXrecord
340
1B
  0
MLINESTYLE
  5
18
102
{ACAD_REACTORS
330
17
102
}
330
17
100
AcDbMlineStyle
  2
STANDARD
 70
     0
  3

 62
   256
 51
90.0
 52
90.0
 71
     2
 49
0.5
 62
   256
  6
BYLAYER
 49
-0.5
 62
   256
  6
BYLAYER
  0
ACDBPLACEHOLDER
  5
F
102
{ACAD_REACTORS
330
E
102
}
330
E
100
AcDbPlaceHolder
280
     0
  0
XRECORD
  5
648
102
{ACAD_REACTORS
330
63E
102
}
330
63E
100
AcDbXrecord
 90
        0
  0
XRECORD
  5
649
102
{ACAD_REACTORS
330
63E
102
}
330
63E
100
AcDbXrecord
  1
{DC175E3D-AE85-11D5-9A93-0040C77E826B}
  0
XRECORD
  5
641
102
{ACAD_REACTORS
330
63E
102
}
330
63E
100
AcDbXrecord
  1

  0
XRECORD
  5
647
102
{ACAD_REACTORS
330
63E
102
}
330
63E
100
AcDbXrecord
 90
        1
  0
XRECORD
  5
643
102
{ACAD_REACTORS
330
63E
102
}
330
63E
100
AcDbXrecord
340
1A
  0
XRECORD
  5
646
102
{ACAD_REACTORS
330
63E
102
}
330
63E
100
AcDbXrecord
 90
    10781
  0
XRECORD
  5
644
102
{ACAD_REACTORS
330
63E
102
}
330
63E
100
AcDbXrecord
340
19
  0
XRECORD
  5
645
102
{ACAD_REACTORS
330
63E
102
}
330
63E
100
AcDbXrecord
340
E
  0
XRECORD
  5
64B
102
{ACAD_REACTORS
330
63E
102
}
330
63E
100
AcDbXrecord
 40
0.0
  0
XRECORD
  5
64E
102
{ACAD_REACTORS
330
63E
102
}
330
63E
100
AcDbXrecord
340
0
  0
XRECORD
  5
654
102
{ACAD_REACTORS
330
63E
102
}
330
63E
100
AcDbXrecord
 10
0.0
 20
0.0
 30
0.0
  0
XRECORD
  5
650
102
{ACAD_REACTORS
330
63E
102
}
330
63E
100
AcDbXrecord
 10
0.0
 20
0.0
 30
0.0
  0
XRECORD
  5
653
102
{ACAD_REACTORS
330
63E
102
}
330
63E
100
AcDbXrecord
 10
0.0
 20
0.0
 30
0.0
  0
XRECORD
  5
651
102
{ACAD_REACTORS
330
63E
102
}
330
63E
100
AcDbXrecord
 10
0.0
 20
0.0
 30
0.0
  0
XRECORD
  5
652
102
{ACAD_REACTORS
330
63E
102
}
330
63E
100
AcDbXrecord
 10
0.0
 20
0.0
 30
0.0
  0
XRECORD
  5
64F
102
{ACAD_REACTORS
330
63E
102
}
330
63E
100
AcDbXrecord
 10
0.0
 20
0.0
 30
0.0
  0
XRECORD
  5
64C
102
{ACAD_REACTORS
330
63E
102
}
330
63E
100
AcDbXrecord
340
0
  0
XRECORD
  5
64D
102
{ACAD_REACTORS
330
63E
102
}
330
63E
100
AcDbXrecord
 70
     0
  0
XRECORD
  5
642
102
{ACAD_REACTORS
330
63E
102
}
330
63E
100
AcDbXrecord
  1

  0
XRECORD
  5
63F
102
{ACAD_REACTORS
330
63E
102
}
330
63E
100
AcDbXrecord
 90
        1
  0
XRECORD
  5
640
102
{ACAD_REACTORS
330
63E
102
}
330
63E
100
AcDbXrecord
 90
       70
  0
XRECORD
  5
657
102
{ACAD_REACTORS
330
63E
102
}
330
63E
100
AcDbXrecord
340
0
  0
XRECORD
  5
65D
102
{ACAD_REACTORS
330
63E
102
}
330
63E
100
AcDbXrecord
 10
0.0
 20
0.0
 30
0.0
  0
XRECORD
  5
659
102
{ACAD_REACTORS
330
63E
102
}
330
63E
100
AcDbXrecord
 10
0.0
 20
0.0
 30
0.0
  0
XRECORD
  5
65C
102
{ACAD_REACTORS
330
63E
102
}
330
63E
100
AcDbXrecord
 10
0.0
 20
0.0
 30
0.0
  0
XRECORD
  5
65A
102
{ACAD_REACTORS
330
63E
102
}
330
63E
100
AcDbXrecord
 10
0.0
 20
0.0
 30
0.0
  0
XRECORD
  5
65B
102
{ACAD_REACTORS
330
63E
102
}
330
63E
100
AcDbXrecord
 10
0.0
 20
0.0
 30
0.0
  0
XRECORD
  5
658
102
{ACAD_REACTORS
330
63E
102
}
330
63E
100
AcDbXrecord
 10
0.0
 20
0.0
 30
0.0
  0
XRECORD
  5
655
102
{ACAD_REACTORS
330
63E
102
}
330
63E
100
AcDbXrecord
340
0
  0
XRECORD
  5
656
102
{ACAD_REACTORS
330
63E
102
}
330
63E
100
AcDbXrecord
 70
     0
  0
XRECORD
  5
64A
102
{ACAD_REACTORS
330
63E
102
}
330
63E
100
AcDbXrecord
  1
{D66DE78A-6C47-43B8-998B-2404767F9799}
  0
ENDSEC
  0
EOF
